查看: 7013|回复: 84

[PV/MV] 【教程】搬运NICO视频的战渣浪方法。

  [复制链接]

629

主题

12

好友

5374

积分

lvup
UID
14042
葱籽
7188
橘子
623
大葱
3
章鱼
766
酒瓶
14

新葱勋章

发表于 14-2-25 13:20 |显示全部楼层
最近看到大家搬运的视频好像都被渣浪二压了。。
所以我就来写一篇小教程,教大家如何避免渣浪二压


本教程仅适用NICO搬运,如果是录制游戏等其他类型,战渣浪过程可能会不同。
在压制视频前,对视频封装、编码等概念不清楚的,请去这里科普一下:http://zhihu.com/question/21437096/answer/18230811
刚接触小丸工具箱而不会用的,请多看小丸工具箱的帮助,这个能解决99%压制出现错误的问题。

文字太长不看?
那就看看这个教程视频吧,能初步理解小丸工具箱的各个功能(要是看不清,请把视频全屏来看。)
视频地址:http://video.sina.com.cn/v/b/125936631-2064146370.html

压制的时候出现的错误连小丸的帮助都无法解决怎么办?
那就在这里看看需要如何报错把:http://www.cnbeining.com/?p=289
准备好报错的资料后,你可以进群跟小丸讨♂论一下人♂生

正经的教程:
其实从NICO下载视频来战渣浪也比较简单啦。。。只要文件参数不触动它二压条件即可
喂渣浪最好是FLV格式,直接喂MP4,那肯定会二压。
在封装和压制的时候,请检查一下文件名里有没有奇怪的符号,例如:“・” “★”等。如果有,请去掉。
从NICO下载好的视频,先用MediaInfo查看视频的参数。
1.jpg


平均码率在100k-990k以内的视频,可以直接封装FLV,喂渣浪。
因为封装视频会导致码率增加一点,所以990k-1000k以内的视频封装后,要检查一些有没有超过1000k,超过了就一定要后黑。
平均码率在1001k-2000k左右,看情况吧。。可以封装后直接后黑。要是你觉得后黑的时间太长了或者文件太大了,可以直接用小丸压制。
2000k以上的。除非你不介意进度条傲娇或者你水管很大,就直接封装后黑喂渣浪吧。
但是压制MMD就是例外了,源视频文件的分辨率在1280*720的情况,压制码率到1500k-2500k再封装后黑也不太过分。压的太低的话,整个MMD就不能看了(除非你也把分辨率降低了。)

接下来就说如何压制把。
我个人推荐使用小丸工具箱压制MP4和封装FLV(你要是用MediaCoder、格式工厂的我也不会拦你,但是你不要问我就是了。)
当然,你也可以自己去用批处理或命令行调用X264、ffmpeg等编码器,去实现小丸没有的功能。
后黑用singHigh比较好,能批量后黑。

在压制前我就多啰嗦一句吧,不熟悉压制的请多看小丸工具箱的帮助。
2.jpg


视频的压制参数,其实小丸的默认参数就能把普通的PV压的码率低、质量好的效果了
如果你不懂这些参数调的到底是什么,建议你最好不是乱动吧。
要是你乱调,导致压制后或传到渣浪出了问题,我只能说:“不默认就不会死,为什么你们就是不明白?”

下图是我常用的压制参数。
因为我传的是PV,所以我不太喜欢对音频流压制,就选了复制音频流。
如果视频里面的音频不是AAC的格式的,请选择FAAC压制,不然很容易会出错。
音频码率,一般来说128就可以了。如果你觉得这数值太低不能听,那你百度一下"AAC"是什么再说吧。
3.jpg

压制方式:
个人推荐用CRF进行压制,CRF数值在23.5-24就可以了,如果这个数值压制出来的参数比源文件高或平均码率降低的比较少,把压出来的文件删掉,CRF值升高一点。要是升高了也出现同样的情况,再重复刚刚流程。直到压出来的视频码率略低而质量又不错就可以了。
码率和画质质量这两个参数需要自己平衡,只要画质比较好而且码率比较低就可以了。不需要说一定要压到1000k左右才后黑。
压制多了,你就会懂什么类型的视频就要用数值多少的CRF。这些别人是告诉不了你的。
要是什么都不懂也不想学,那你可以选择一键压制。
至于2pass,小丸最新版已经移除了,想要用的话自己在自定义写或者找喵喵版。不过压制视频出错就不要找我了。


后黑:
当视频压好以后,就封装FLV把。
码率超过1000k就后黑(这个不用多说了把?)
至于你要后黑到什么程度,完全取决于你的爱好。譬如我这个整数强迫症的,每次后黑视频不到1000k就不舒服
你要是喜欢999、998这类的数值也可以。。总而言之,就是不能超过1000k(感觉这段话好废。。。)

不过也有一些特殊视频,是不能直接封装后黑的。一后黑就会弹错并软件假死。
这个是用MediaInfo也看不出来的错误。

例如猴哥这个视频。
视频信息:
  1. General
  2.     Complete name : E:\ZP\ACG\百度上传\2-17\【ピアノ】 「名前のない怪物」を弾いてみた 【PSYCHO-PASS ED】【sm22895187】.MP4
  3.     Format : MPEG-4
  4.     Format profile : Base Media
  5.     Codec ID : isom
  6.     File size : 42.3 MiB
  7.     Duration : 5mn 22s
  8.     Overall bit rate mode : Variable
  9.     Overall bit rate : 1 099 Kbps
  10.     Encoded date : UTC 2014-02-15 09:43:33
  11.     Tagged date : UTC 2014-02-15 09:43:33
  12.     Copyright : SMILEVIDEO_MP4
  13.   Video #2
  14.     ID : 2
  15.     Format : AVC
  16.     Format/Info : Advanced Video Codec
  17.     Format profile : Main@L3.0
  18.     Format settings, CABAC : No
  19.     Format settings, ReFrames : 2 frames
  20.     Format settings, GOP : M=1, N=120
  21.     Codec ID : avc1
  22.     Codec ID/Info : Advanced Video Coding
  23.     Duration : 5mn 22s
  24.     Bit rate : 970 Kbps
  25.     Maximum bit rate : 1 361 Kbps
  26.     Width : 640 pixels
  27.     Height : 360 pixels
  28.     Display aspect ratio : 16:9
  29.     Frame rate mode : Constant
  30.     Frame rate : 29.970 fps
  31.     Color space : YUV
  32.     Chroma subsampling : 4:2:0
  33.     Bit depth : 8 bits
  34.     Scan type : Progressive
  35.     Bits/(Pixel*Frame) : 0.140
  36.     Stream size : 37.3 MiB (88%)
  37.     Title : Apple 價僨僆丒儊僨傿傾僴儞僪儔
  38.     Language : English
  39.     Encoded date : UTC 2014-02-15 01:34:35
  40.     Tagged date : UTC 2014-02-15 09:43:33
  41.     Color primaries : BT.601 NTSC
  42.     Transfer characteristics : BT.709
  43.     Matrix coefficients : BT.601
  44.   Audio #1
  45.     ID : 1
  46.     Format : AAC
  47.     Format/Info : Advanced Audio Codec
  48.     Format profile : LC
  49.     Codec ID : 40
  50.     Duration : 5mn 22s
  51.     Source duration : 5mn 22s
  52.     Bit rate mode : Variable
  53.     Bit rate : 127 Kbps
  54.     Maximum bit rate : 162 Kbps
  55.     Channel count : 2 channels
  56.     Channel positions : Front: L R
  57.     Sampling rate : 44.1 KHz
  58.     Compression mode : Lossy
  59.     Stream size : 4.87 MiB (12%)
  60.     Source stream size : 4.87 MiB (12%)
  61.     Title : Apple 僒僂儞僪丒儊僨傿傾僴儞僪儔
  62.     Language : English
  63.     Encoded date : UTC 2014-02-15 01:34:35
  64.     Tagged date : UTC 2014-02-15 09:43:33
复制代码
从文件信息来看,video在#2而audio在#1。音频流和视频流的顺序调转了,所以后黑才会出错。
这个时候用小丸在压制一遍就会正常了。。

上传渣浪的话,不是版权物和违规的东西都是能通过的。
渣浪对于PV的审核还是很宽松的,除了有时候渣浪抽风,视频都是能过的。


暂时就写那么多了(说好的小教程呢,你怎么越写长
对于教程有什么疑问,可以在帖内跟帖,我会尽量回复的(当然,手把手教学还是免了

最后就是求版主大大们申精和置顶(字码了那么多也不容易)




更多
已有 2 人评分橘子 葱籽 酒瓶 收起 理由
剑酱 + 5 + 50
浅笑゛格式化ヽ + 1 码字辛苦了 =。=

总评分: 橘子 + 5  葱籽 + 50  酒瓶 + 1   查看全部评分

1505

主题

176

好友

1973

积分

lvup
UID
66521
葱籽
40
橘子
20
大葱
20
章鱼
22
酒瓶
20

新年勋章 圣诞勋章 新葱勋章 mCm-30 mCm-50 时间的葱 mCm-100 mCm-200 mDc-100 平凡葱印 mDc-56 mCm-500

发表于 14-2-25 13:28 |显示全部楼层
已收藏,下次试试
回复

使用道具 举报

23

主题

102

好友

9230

积分

owo

UID
55555
葱籽
7490
橘子
134
大葱
54
章鱼
1620
酒瓶
33

新葱勋章 围观勋章 时间的葱 C1

发表于 14-2-25 17:30 |显示全部楼层
虽然不知道怎么回事。。。但好像很腻害的样子
(  ̄▽ ̄) 大家好 我是签名
ε=ε=( o`ω′)ノ 【拍飞】 我才是签名
回复

使用道具 举报

1

主题

21

好友

2160

积分

lvup
UID
48860
葱籽
951
橘子
5
大葱
0
章鱼
377
酒瓶
0

新葱勋章

发表于 14-3-1 18:01 |显示全部楼层
我去……好高端啊!!
回复

使用道具 举报

2

主题

4

好友

560

积分

lvup
UID
106493
葱籽
7
橘子
16
大葱
0
章鱼
104
酒瓶
0

新葱勋章

发表于 14-3-2 00:10 |显示全部楼层
不明觉厉~
大好きって言うなら 大大好きって返すよ 大好きって言うなら 大大好きって返すよ
回复

使用道具 举报

1

主题

0

好友

39

积分

lvup
UID
106976
葱籽
61
橘子
6
大葱
0
章鱼
5
酒瓶
0

新葱勋章

发表于 14-3-9 20:10 |显示全部楼层
呃呃呃……是我太蠢了吗QAQ看不懂……求安慰!
回复

使用道具 举报

629

主题

12

好友

5374

积分

lvup
UID
14042
葱籽
7188
橘子
623
大葱
3
章鱼
766
酒瓶
14

新葱勋章

发表于 14-3-9 20:35 |显示全部楼层
云浅夜 发表于 14-3-9 20:10
呃呃呃……是我太蠢了吗QAQ看不懂……求安慰!

这么说吧,从NICO下载好的视频,看看它的总码率没有超过1000K,(实际要看封装出来的FLV,因为封装的时候会增加码率)
1.没有,封装FLV喂渣浪.
2.有,压制到1000K以下,封装FLV喂渣浪。
3.有,但是码率压制到1000K-1300K左右,用flvbugger后黑(后黑时间在100秒以下就可以,100秒以上的你也可以去试,但是我的都挂了)
因为渣浪的严打后黑比较针对sinahigh,所以这个软件除了玩倍速基本上都废了。
大概就是这样的流程拉!!!!!
回复

使用道具 举报

629

主题

12

好友

5374

积分

lvup
UID
14042
葱籽
7188
橘子
623
大葱
3
章鱼
766
酒瓶
14

新葱勋章

发表于 14-3-9 20:46 |显示全部楼层
DAED 发表于 14-3-1 18:01
我去……好高端啊!!

才不高端。。。。。
回复

使用道具 举报

1

主题

0

好友

39

积分

lvup
UID
106976
葱籽
61
橘子
6
大葱
0
章鱼
5
酒瓶
0

新葱勋章

发表于 14-3-10 12:39 |显示全部楼层
XDXP 发表于 14-3-9 20:35
这么说吧,从NICO下载好的视频,看看它的总码率没有超过1000K,(实际要看封装出来的FLV,因为封装的时候 ...

看来要好好研究下呢……QAQ
回复

使用道具 举报

1

主题

0

好友

39

积分

lvup
UID
106976
葱籽
61
橘子
6
大葱
0
章鱼
5
酒瓶
0

新葱勋章

发表于 14-3-10 12:40 |显示全部楼层
XDXP 发表于 14-3-9 20:35
这么说吧,从NICO下载好的视频,看看它的总码率没有超过1000K,(实际要看封装出来的FLV,因为封装的时候 ...

看来要好好研究下呢……QAQ
[发帖际遇]: 命运之神眷顾了云浅夜,赐给云浅夜葱籽8 粒. 幸运榜 / 衰神榜
回复

使用道具 举报

1

主题

0

好友

18

积分

lvup
UID
107186
葱籽
34
橘子
6
大葱
0
章鱼
1
酒瓶
0

新葱勋章

发表于 14-3-14 22:26 |显示全部楼层
先慢慢研究消化再說
謝大大了~~
回复

使用道具 举报

2

主题

4

好友

560

积分

lvup
UID
106493
葱籽
7
橘子
16
大葱
0
章鱼
104
酒瓶
0

新葱勋章

发表于 14-3-15 08:47 |显示全部楼层
要好好学习一下呢~
大好きって言うなら 大大好きって返すよ 大好きって言うなら 大大好きって返すよ
回复

使用道具 举报

1

主题

21

好友

2160

积分

lvup
UID
48860
葱籽
951
橘子
5
大葱
0
章鱼
377
酒瓶
0

新葱勋章

发表于 14-3-15 17:42 |显示全部楼层
XDXP 发表于 14-3-9 20:46
才不高端。。。。。

我觉得很高端啊!
回复

使用道具 举报

0

主题

0

好友

21

积分

lvup
UID
107411
葱籽
40
橘子
5
大葱
0
章鱼
2
酒瓶
0

新葱勋章

发表于 14-3-20 05:33 |显示全部楼层
貌似好高端的说....
回复

使用道具 举报

1

主题

0

好友

46

积分

lvup
UID
107382
葱籽
31
橘子
5
大葱
0
章鱼
7
酒瓶
0

新葱勋章

发表于 14-3-23 12:27 |显示全部楼层
谢谢了的说,之前一直都不会弄
回复

使用道具 举报

您需要登录后才可以回帖 登录 | 入驻葱窝