查看: 2194|回复: 68

[专辑/CD] [自购] [EAC自抓]「初音ミク-Project-DIVA--X」Complete collection(wav+cue+log)

  [复制链接]

2

主题

1

好友

1703

积分

lvup
UID
123885
葱籽
795
橘子
46
大葱
2
章鱼
320
酒瓶
0

新葱勋章

发表于 16-8-19 14:13 |显示全部楼层



附上实物图   IMG_3012.JPG




Product Description
内容紹介
前作出荷本数約20万本を超える大人気ゲーム「初音ミク -Project DIVA-」の最新作「X」の、サウンドトラック。豪華ボカロPのゲーム内で収録されている楽曲を余すところなくCDに収録!



※在庫がなくなり次第終了となります。

メディア掲載レビューほか
前作出荷本数約20万本を超える大人気ゲーム『初音ミク -Project DIVA-』の最新作『X』の、サウンドトラック。豪華ボカロPのゲーム内で収録されている楽曲を余すところなくCDに収録! (C)RS

Exact Audio Copy V1.0 beta 3 from 29. August 2011

EAC 抓取日志文件从16. 八月 2016, 22:57

VARIOUS ARTISTS / 「初音ミク-Project DIVA-X」Complete Collection

使用驱动器  :HL-DT-STDVD+-RW GU90N   Adapter: 0  ID: 0

读取模式      : 可靠Secure
使用精确流     : 是
清空音频缓存    : 否
使用 C2 指示器 : 否

读取偏移校正:               : 102
读取 Lead-In 和 Lead-Out : 否
用静音填充抓取中丢失偏移的采样       : 是
去除首尾静音块               : 否
在CRC 计算中使用了空样本       : 是
已用接口                  : Win NT 及 2000 本地 Win32 接口

所用输出模式: : 内部 WAV 函数
样本格式    : 44.100 Hz; 16 Bit; 立体声


已抓取 CD 的 TOC

     音轨 |    起始    |    长度    |  起始扇区  |  结束扇区  
    --------------------------------------------
      1 |  0:00.00 |  3:36.04 |      0 |  16203
      2 |  3:36.04 |  3:17.63 |  16204 |  31041
      3 |  6:53.67 |  2:58.67 |  31042 |  44458
      4 |  9:52.59 |  3:38.51 |  44459 |  60859
      5 | 13:31.35 |  4:08.13 |  60860 |  79472
      6 | 17:39.48 |  3:58.08 |  79473 |  97330
      7 | 21:37.56 |  3:35.67 |  97331 | 113522
      8 | 25:13.48 |  3:06.30 | 113523 | 127502
      9 | 28:20.03 |  2:50.71 | 127503 | 140323
     10 | 31:10.74 |  3:03.62 | 140324 | 154110
     11 | 34:14.61 |  3:41.37 | 154111 | 170722
     12 | 37:56.23 |  4:14.25 | 170723 | 189797


范围状态及错误

已选择范围

     文件名 E:\eac\VARIOUS ARTISTS - 「初音ミク-Project DIVA-X」Complete Collection.wav

     峰值电平 99.9 %
     抓取速度 6.3 X
     范围质量 100.0 %
     复制 CRC 29566EF3
     复制成功

没有错误发生


AccurateRip 摘要

音轨  1  精确地校准抓取  5)  [6E201C43]  (AR v2)
音轨  2  精确地校准抓取  5)  [66E3C881]  (AR v2)
音轨  3  精确地校准抓取  5)  [D6557F55]  (AR v2)
音轨  4  精确地校准抓取  5)  [811991E6]  (AR v2)
音轨  5  精确地校准抓取  5)  [7254404D]  (AR v2)
音轨  6  精确地校准抓取  5)  [B436FBD1]  (AR v2)
音轨  7  精确地校准抓取  5)  [EDF3AF65]  (AR v2)
音轨  8  精确地校准抓取  5)  [4490ED15]  (AR v2)
音轨  9  精确地校准抓取  5)  [66768914]  (AR v2)
音轨 10  精确地校准抓取  5)  [249C0AE7]  (AR v2)
音轨 11  精确地校准抓取  5)  [C162C4D3]  (AR v2)
音轨 12  精确地校准抓取  5)  [191952BD]  (AR v2)

所有音轨精确校准抓取

状态报告结尾
---------------------------------------------------------------------------------------------------------------
Exact Audio Copy V1.0 beta 3 from 29. August 2011

EAC 抓取日志文件从16. 八月 2016, 23:30

VARIOUS ARTISTS / 「初音ミク-Project DIVA-X」Complete Collection

使用驱动器  :HL-DT-STDVD+-RW GU90N   Adapter: 0  ID: 0

读取模式      : 可靠Secure
使用精确流     : 是
清空音频缓存    : 否
使用 C2 指示器 : 否

读取偏移校正:               : 102
读取 Lead-In 和 Lead-Out : 否
用静音填充抓取中丢失偏移的采样       : 是
去除首尾静音块               : 否
在CRC 计算中使用了空样本       : 是
已用接口                  : Win NT 及 2000 本地 Win32 接口

所用输出模式: : 内部 WAV 函数
样本格式    : 44.100 Hz; 16 Bit; 立体声


已抓取 CD 的 TOC

     音轨 |    起始    |    长度    |  起始扇区  |  结束扇区  
    --------------------------------------------
      1 |  0:00.00 |  3:22.27 |      0 |  15176
      2 |  3:22.27 |  3:43.41 |  15177 |  31942
      3 |  7:05.68 |  3:36.10 |  31943 |  48152
      4 | 10:42.03 |  2:54.33 |  48153 |  61235
      5 | 13:36.36 |  3:15.70 |  61236 |  75930
      6 | 16:52.31 |  4:09.59 |  75931 |  94664
      7 | 21:02.15 |  3:10.53 |  94665 | 108967
      8 | 24:12.68 |  3:32.31 | 108968 | 124898
      9 | 27:45.24 |  3:26.51 | 124899 | 140399
     10 | 31:12.00 |  2:59.07 | 140400 | 153831
     11 | 34:11.07 |  3:40.45 | 153832 | 170376
     12 | 37:51.52 |  4:18.13 | 170377 | 189739
     13 | 42:09.65 |  2:44.29 | 189740 | 202068
     14 | 44:54.19 |  3:03.27 | 202069 | 215820
     15 | 47:57.46 |  2:59.42 | 215821 | 229287
     16 | 50:57.13 |  3:44.60 | 229288 | 246147
     17 | 54:41.73 |  3:03.68 | 246148 | 259940
     18 | 57:45.66 |  4:11.36 | 259941 | 278801


范围状态及错误

已选择范围

     文件名 E:\eac\VARIOUS ARTISTS - 「初音ミク-Project DIVA-X」Complete Collection.wav

     峰值电平 99.9 %
     抓取速度 7.7 X
     范围质量 100.0 %
     复制 CRC DDBC87F6
     复制成功

没有错误发生


AccurateRip 摘要

音轨  1  精确地校准抓取  2)  [D4BF863E]  (AR v2)
音轨  2  精确地校准抓取  2)  [F8D775EF]  (AR v2)
音轨  3  精确地校准抓取  2)  [912D572D]  (AR v2)
音轨  4  精确地校准抓取  2)  [2104A101]  (AR v2)
音轨  5  精确地校准抓取  2)  [ECF880BF]  (AR v2)
音轨  6  精确地校准抓取  2)  [797732B3]  (AR v2)
音轨  7  精确地校准抓取  2)  [4971D8ED]  (AR v2)
音轨  8  精确地校准抓取  2)  [B1C1132C]  (AR v2)
音轨  9  精确地校准抓取  2)  [5DB6EA4C]  (AR v2)
音轨 10  精确地校准抓取  2)  [60B7757E]  (AR v2)
音轨 11  精确地校准抓取  2)  [5B363ACF]  (AR v2)
音轨 12  精确地校准抓取  2)  [5A30A6F1]  (AR v2)
音轨 13  精确地校准抓取  2)  [77C2A95A]  (AR v2)
音轨 14  精确地校准抓取  2)  [EAF71C4A]  (AR v2)
音轨 15  精确地校准抓取  2)  [517A5262]  (AR v2)
音轨 16  精确地校准抓取  2)  [14A58FAD]  (AR v2)
音轨 17  精确地校准抓取  2)  [BB806949]  (AR v2)
音轨 18  精确地校准抓取  2)  [8754A552]  (AR v2)

所有音轨精确校准抓取

状态报告结尾
---------------------------------------------------------------------------
游客,如果您要查看本帖隐藏内容请回复



更多
已有 1 人评分橘子 葱籽 大葱 收起 理由
cyk36095 + 5 + 50 + 2

总评分: 橘子 + 5  葱籽 + 50  大葱 + 2   查看全部评分

0

主题

2

好友

407

积分

lvup
UID
144792
葱籽
186
橘子
1
大葱
0
章鱼
80
酒瓶
0
发表于 16-8-19 19:14 |显示全部楼层
非常感谢LZ分享!
回复

使用道具 举报

0

主题

0

好友

318

积分

lvup
UID
130855
葱籽
139
橘子
6
大葱
0
章鱼
61
酒瓶
0
发表于 16-8-19 19:20 |显示全部楼层
多谢楼主分享
回复

使用道具 举报

0

主题

0

好友

4189

积分

lvup
UID
87015
葱籽
1881
橘子
1
大葱
0
章鱼
833
酒瓶
0
发表于 16-8-20 07:24 |显示全部楼层
感谢分享
回复

使用道具 举报

0

主题

0

好友

1892

积分

lvup
UID
136004
葱籽
772
橘子
6
大葱
0
章鱼
375
酒瓶
0
发表于 16-8-20 11:08 |显示全部楼层
感谢楼主分享~!~!
回复

使用道具 举报

0

主题

0

好友

6

积分

lvup
UID
158780
葱籽
8
橘子
0
大葱
0
章鱼
1
酒瓶
0
发表于 16-8-20 13:51 |显示全部楼层
要啊啊啊啊啊啊啊
回复

使用道具 举报

0

主题

0

好友

6

积分

lvup
UID
158780
葱籽
8
橘子
0
大葱
0
章鱼
1
酒瓶
0
发表于 16-8-20 13:51 |显示全部楼层
感谢楼主
回复

使用道具 举报

0

主题

0

好友

123

积分

lvup
UID
140309
葱籽
67
橘子
0
大葱
0
章鱼
24
酒瓶
0
发表于 16-8-21 10:50 |显示全部楼层
不明觉厉
回复

使用道具 举报

0

主题

0

好友

346

积分

lvup
UID
130739
葱籽
199
橘子
0
大葱
0
章鱼
68
酒瓶
0
发表于 16-8-21 11:34 |显示全部楼层
好东西
回复

使用道具 举报

0

主题

1

好友

102

积分

lvup
UID
72264
葱籽
52
橘子
5
大葱
0
章鱼
18
酒瓶
0
发表于 16-8-21 19:09 |显示全部楼层
非常感谢!!收曲良心
回复

使用道具 举报

0

主题

0

好友

709

积分

lvup
UID
156809
葱籽
333
橘子
1
大葱
0
章鱼
140
酒瓶
0
发表于 16-8-21 19:58 |显示全部楼层
不明觉厉
非常感谢!!
回复

使用道具 举报

0

主题

0

好友

404

积分

lvup
UID
107151
葱籽
233
橘子
5
大葱
0
章鱼
77
酒瓶
0
发表于 16-8-21 23:28 |显示全部楼层
感谢分享
回复

使用道具 举报

6

主题

0

好友

1840

积分

lvup
UID
1298
葱籽
3056
橘子
100
大葱
100
章鱼
218
酒瓶
20

新葱勋章 重生勋章 围观勋章 勤奋的葱

发表于 16-8-22 11:31 |显示全部楼层
给力,准备玩游戏
回复

使用道具 举报

1

主题

4

好友

2248

积分

lvup
UID
106116
葱籽
1501
橘子
30
大葱
0
章鱼
432
酒瓶
0

新葱勋章 围观勋章 勤奋的葱 mCm-30

发表于 16-8-22 13:53 |显示全部楼层
感谢分享
回复

使用道具 举报

1

主题

0

好友

706

积分

lvup
UID
49759
葱籽
322
橘子
1
大葱
0
章鱼
137
酒瓶
0
发表于 16-8-23 00:06 |显示全部楼层
非常感谢楼主
回复

使用道具 举报

您需要登录后才可以回帖 登录 | 入驻葱窝