查看: 5967|回复: 95

[专辑/CD] [EAC自抓][141230]S.C.X - Sound Collection - New Original(FLAC+CUE+LOG+BK)

  [复制链接]

3

主题

1

好友

1525

积分

lvup
UID
71504
葱籽
805
橘子
22
大葱
9
章鱼
273
酒瓶
2
发表于 15-1-27 20:11 |显示全部楼层
本帖最后由 剑酱 于 15-2-5 13:35 编辑


这两张CD是S.C.X在C87上发售的,把以前的作品重新混音和调教,当时有点失望,但还是拿下了,仔细一听才发现区别大了,特别在《New Original》中的第六首,我已经听不出是ミク的声音,S.C.X的调教一直都是非常自然的,很多歌曲总有那么一段非常漂亮的地方。听得时候把以前的作品拿来对比,很有意思。第二张都是第三方编曲,不过我发现了P∴Rhythmatiq,有兴趣可以听下。

S.C.X - Sound Collection - New Original

Track list
01. Dragoon
歌:初音ミク 作詞:T-ism        作曲編曲:Clean Tears
02. Sonorous
歌:初音ミク 作詞:海兎         作曲編曲:Clean Tears
03. Solesta!
歌:初音ミク 作詞:T-ism        作曲編曲:Clean Tears
04. Pousse Cafe
歌:初音ミク 作詞:T-ism        作曲編曲:Clean Tears
05. Sting
歌:初音ミク 作詞:Clean Tears  作曲編曲:Clean Tears
06. 月想夜
歌:初音ミク 作詞:留@ 良姫    作曲編曲:Clean Tears
07. It's me It's you
歌:初音ミク 作詞:T-ism        作曲編曲:Clean Tears
08. 風の花
歌:初音ミク 作詞:Clean Tears  作曲編曲:Clean Tears
09. To be style
歌:初音ミク 作詞:海兎         作曲編曲:Clean Tears
10. Tears of palm
歌:初音ミク 作詞:Clean Tears  作曲編曲:Clean Tears
11. 水鏡の庭
歌:初音ミク 作詞:T-ism        作曲編曲:Clean Tears
12. Inverse  Relation (Radio Mix)
歌:初音ミク 作詞:Clean Tears  作曲編曲:Clean Tears
13. 虹
歌:初音ミク 作詞:Clean Tears  作曲編曲:Clean Tears
14. Love it!
歌:初音ミク 作詞:T-ism        作曲編曲:Clean Tears
————————————————————————————————————————————————————————
Exact Audio Copy V1.0 beta 4 from 7. December 2014

EAC 抓取日志文件从22. 一月 2015, 23:54

S.C.X / Sound Collection - New Original

使用驱动器  :HL-DT-STDVDRAM GT32N   Adapter: 1  ID: 0

读取模式      : 可靠Secure
使用精确流     : 是
清空音频缓存    : 是
使用 C2 指示器 : 否

读取偏移校正:               : 103
读取 Lead-In 和 Lead-Out : 否
用静音填充抓取中丢失偏移的采样       : 是
去除首尾静音块               : 否
在CRC 计算中使用了空样本       : 是
已用接口                  : Win NT 及 2000 本地 Win32 接口

所用输出模式: : 内部 WAV 函数
样本格式    : 44.100 Hz; 16 Bit; 立体声


已抓取 CD 的 TOC

     音轨 |    起始    |    长度    |  起始扇区  |  结束扇区  
    --------------------------------------------
      1 |  0:00.00 |  5:17.01 |      0 |  23775
      2 |  5:17.01 |  5:12.00 |  23776 |  47175
      3 | 10:29.01 |  6:25.56 |  47176 |  76106
      4 | 16:54.57 |  5:00.40 |  76107 |  98646
      5 | 21:55.22 |  4:18.22 |  98647 | 118018
      6 | 26:13.44 |  4:04.67 | 118019 | 136385
      7 | 30:18.36 |  4:18.00 | 136386 | 155735
      8 | 34:36.36 |  4:55.38 | 155736 | 177898
      9 | 39:31.74 |  4:56.41 | 177899 | 200139
     10 | 44:28.40 |  5:47.00 | 200140 | 226164
     11 | 50:15.40 |  4:42.28 | 226165 | 247342
     12 | 54:57.68 |  5:51.25 | 247343 | 273692
     13 | 60:49.18 |  5:32.00 | 273693 | 298592
     14 | 66:21.18 |  5:31.55 | 298593 | 323472


范围状态及错误

已选择范围

     文件名 C:\Users\BeatSen\Desktop\Sound Collection - New Original\新建文件夹\S.C.X - Sound Collection - New Original.wav

     峰值电平 100.0 %
     抓取速度 2.2 X
     范围质量 100.0 %
     复制 CRC 7EE90716
     复制成功

没有错误发生

状态报告结尾

---- CUETools DB Plugin V2.1.4

[CTDB TOCID: eyA3QFIBVYaz6P8YjdoA4INugvg-] found
Submit result: eyA3QFIBVYaz6P8YjdoA4INugvg- has been confirmed
Track | CTDB Status
  1   | (3/4) Accurately ripped
  2   | (3/4) Accurately ripped
  3   | (3/4) Accurately ripped
  4   | (3/4) Accurately ripped
  5   | (3/4) Accurately ripped
  6   | (3/4) Accurately ripped
  7   | (3/4) Accurately ripped
  8   | (3/4) Accurately ripped
  9   | (3/4) Accurately ripped
10   | (3/4) Accurately ripped
11   | (3/4) Accurately ripped
12   | (3/4) Accurately ripped
13   | (3/4) Accurately ripped
14   | (3/4) Accurately ripped


==== 记录校验日志 9C2DBADAB45332559BD3ECAAD665B7C32F815EB7D906092249933473AE8F3A41 ====


S.C.X - Sound Collection - Another Original

Track list
01.Pousse Cafe (takamatt Remix)        
02.Sonorous (SuketchP Remix)        
03.Solesta! (Kenichi Chiba Remix)        
04.Love it! (P∴Rhythmatiq Remix)        
05.Tears of palm (かめりあ's "Retearing" Remix)        
06.Desert Wolf (Another Original Remix)        
07.Requiem (Another Original Remix)        
08.Dreamscape (TeigakuP Remix)        
09.Far away (3x Remix)        
10.Inverse Relation (HSP Remix)

——————————————————————————————————————————————————————
Exact Audio Copy V1.0 beta 4 from 7. December 2014

EAC 抓取日志文件从23. 一月 2015, 0:47

S.C.X / Sound Collection - Another Original

使用驱动器  :HL-DT-STDVDRAM GT32N   Adapter: 1  ID: 0

读取模式      : 可靠Secure
使用精确流     : 是
清空音频缓存    : 是
使用 C2 指示器 : 否

读取偏移校正:               : 103
读取 Lead-In 和 Lead-Out : 否
用静音填充抓取中丢失偏移的采样       : 是
去除首尾静音块               : 否
在CRC 计算中使用了空样本       : 是
已用接口                  : Win NT 及 2000 本地 Win32 接口

所用输出模式: : 内部 WAV 函数
样本格式    : 44.100 Hz; 16 Bit; 立体声


已抓取 CD 的 TOC

     音轨 |    起始    |    长度    |  起始扇区  |  结束扇区  
    --------------------------------------------
      1 |  0:02.00 |  5:09.25 |    150 |  23349
      2 |  5:11.25 |  5:42.18 |  23350 |  49017
      3 | 10:53.43 |  7:13.40 |  49018 |  81532
      4 | 18:07.08 |  5:09.23 |  81533 | 104730
      5 | 23:16.31 |  5:24.16 | 104731 | 129046
      6 | 28:40.47 |  7:48.42 | 129047 | 164188
      7 | 36:29.14 |  6:38.08 | 164189 | 194046
      8 | 43:07.22 |  7:04.66 | 194047 | 225912
      9 | 50:12.13 |  7:05.42 | 225913 | 257829
     10 | 57:17.55 |  7:39.56 | 257830 | 292310


范围状态及错误

已选择范围

     文件名 C:\Users\BeatSen\Desktop\Sound Collection - New Original\新建文件夹\S.C.X - Sound Collection - Another Original.wav

     峰值电平 99.9 %
     抓取速度 2.2 X
     范围质量 100.0 %
     复制 CRC 2245EF0E
     复制成功

没有错误发生

状态报告结尾

---- CUETools DB Plugin V2.1.4

[CTDB TOCID: IV24Fv3HcYesbYrMHz6cKJzZIIk-] found
Submit result: IV24Fv3HcYesbYrMHz6cKJzZIIk- has been confirmed
Track | CTDB Status
  1   | (1/1) Accurately ripped
  2   | (1/1) Accurately ripped
  3   | (1/1) Accurately ripped
  4   | (1/1) Accurately ripped
  5   | (1/1) Accurately ripped
  6   | (1/1) Accurately ripped
  7   | (1/1) Accurately ripped
  8   | (1/1) Accurately ripped
  9   | (1/1) Accurately ripped
10   | (1/1) Accurately ripped


==== 记录校验日志 E418E05DA80D354742F6676CE808A0FF80C5DFDA52A98908F1DC3724EBB6DD52 ====


游客,如果您要查看本帖隐藏内容请回复


封面作者是k2pudding,我只是在P站找到这张图,但太小,求高清无码大图





更多
已有 1 人评分橘子 葱籽 大葱 收起 理由
剑酱 + 5 + 50 + 2

总评分: 橘子 + 5  葱籽 + 50  大葱 + 2   查看全部评分

0

主题

0

好友

5

积分

lvup
UID
121208
葱籽
3
橘子
0
大葱
0
章鱼
1
酒瓶
0
发表于 15-1-27 22:12 |显示全部楼层
不做伸手党,来了
回复

使用道具 举报

11

主题

6

好友

1482

积分

lvup
UID
20433
葱籽
1011
橘子
13
大葱
0
章鱼
285
酒瓶
1
发表于 15-1-27 23:48 |显示全部楼层
感谢lz分享
回复

使用道具 举报

1

主题

1

好友

295

积分

lvup
UID
119066
葱籽
197
橘子
6
大葱
0
章鱼
56
酒瓶
0

新葱勋章

发表于 15-1-28 02:14 |显示全部楼层
看见S.c.x立马冒出来了,最喜欢这个乐队的电音,感谢楼主的好碟
回复

使用道具 举报

0

主题

3

好友

7849

积分

lvup
UID
82579
葱籽
3902
橘子
0
大葱
0
章鱼
1553
酒瓶
1
发表于 15-1-28 05:32 |显示全部楼层
感谢lz分享
回复

使用道具 举报

5

主题

1

好友

631

积分

lvup
UID
120909
葱籽
378
橘子
1
大葱
0
章鱼
125
酒瓶
0

新葱勋章

发表于 15-1-28 08:36 |显示全部楼层
新瓶装旧酒么。。嘛,先听下看看。
回复

使用道具 举报

192

主题

76

好友

7620

积分

wwww小w来也!

lvup
UID
104590
葱籽
3680
橘子
101
大葱
18
章鱼
896
酒瓶
55

新葱勋章 平凡葱印 时间的葱 幸运之葱 圣诞勋章 新年勋章

发表于 15-1-28 08:48 |显示全部楼层
图片全部挂啦~不过还是感谢分享
回复

使用道具 举报

221

主题

92

好友

7569

积分

_(:зゝ∠)_吃土万岁

lvup
UID
102307
葱籽
11230
橘子
60
大葱
4
章鱼
1047
酒瓶
51

新葱勋章 平凡葱印 时间的葱 幸运之葱 勤奋的葱 圣诞勋章 新年勋章

发表于 15-1-28 10:38 |显示全部楼层
感谢分享
一起去看烟火吧!
回复

使用道具 举报

1

主题

0

好友

3323

积分

lvup
UID
35849
葱籽
1416
橘子
16
大葱
0
章鱼
654
酒瓶
0

新葱勋章

发表于 15-1-28 12:05 |显示全部楼层
感谢楼主,收下啦
回复

使用道具 举报

42

主题

9

好友

7090

积分

lvup
UID
86397
葱籽
1866
橘子
31
大葱
4
章鱼
1390
酒瓶
1

新葱勋章 时间的葱

发表于 15-1-28 12:10 |显示全部楼层
感谢分享~~
回复

使用道具 举报

221

主题

92

好友

7569

积分

_(:зゝ∠)_吃土万岁

lvup
UID
102307
葱籽
11230
橘子
60
大葱
4
章鱼
1047
酒瓶
51

新葱勋章 平凡葱印 时间的葱 幸运之葱 勤奋的葱 圣诞勋章 新年勋章

发表于 15-1-28 15:17 |显示全部楼层
图片好像都挂了
一起去看烟火吧!
回复

使用道具 举报

3

主题

1

好友

1525

积分

lvup
UID
71504
葱籽
805
橘子
22
大葱
9
章鱼
273
酒瓶
2
发表于 15-1-28 15:57 |显示全部楼层
请叫我延米 发表于 15-1-28 15:17
图片好像都挂了

图没挂啊,图床用的是POCO,我这都能全部显示出来。
已有 1 人评分酒瓶 收起 理由
幻、殇 + 1 主帖不能给

总评分: 酒瓶 + 1   查看全部评分

回复

使用道具 举报

1

主题

13

好友

3071

积分

我就打个酱油︿( ̄︶ ̄)︽( ̄︶ ̄)︿

lvup
UID
68217
葱籽
1831
橘子
6
大葱
0
章鱼
594
酒瓶
1

新葱勋章

发表于 15-1-28 19:29 |显示全部楼层
感谢分享啊,挺久没听殿下的新歌了
回复

使用道具 举报

192

主题

76

好友

7620

积分

wwww小w来也!

lvup
UID
104590
葱籽
3680
橘子
101
大葱
18
章鱼
896
酒瓶
55

新葱勋章 平凡葱印 时间的葱 幸运之葱 圣诞勋章 新年勋章

发表于 15-1-30 07:31 来自萌葱窝移动版 |显示全部楼层
本帖最后由 weiliqi 于 15-1-30 07:39 编辑

@Saremm    楼主的图片外链全部是有问题的……poco的外链应该把链接中的-c删除才可以正常使用
……楼主的poco外部链接应该是这样的(全部是按顺序调整)
http://image16.poco.cn/mypoco/myphoto/20150127/18/6094765220150127180521068.jpg?620x1024_120
http://image16.poco.cn/mypoco/myphoto/20150127/18/6094765220150127180125081.jpg?1024x1011_120
http://image16.poco.cn/mypoco/myphoto/20150127/18/609476522015012718004506.png?1024x579_120
回复

使用道具 举报

192

主题

76

好友

7620

积分

wwww小w来也!

lvup
UID
104590
葱籽
3680
橘子
101
大葱
18
章鱼
896
酒瓶
55

新葱勋章 平凡葱印 时间的葱 幸运之葱 圣诞勋章 新年勋章

发表于 15-1-30 10:36 |显示全部楼层
@剑酱 版主帮一下忙吧,修改一下这个帖子的图片外链,连接在14楼
回复

使用道具 举报

您需要登录后才可以回帖 登录 | 入驻葱窝